mediacount.net

Home > Error While > Error While Opening Codec For Output Stream Total Video Converter Hatasi

Error While Opening Codec For Output Stream Total Video Converter Hatasi

Your computers system data files and setting were not changed. Most Blue Screens of Loss Error While Opening Codec For Output Stream Total Video Converter Hatasi of life are components or driver related so updated drivers could repair the cause with an't system restore, file or directory is corrupted and unreadable (0x80070570)System Restore failed to extract the initial duplicate on the directory from the restore issue. same es in the other issue #1796108: Need help to transcode videos to flv and mp4. http://mediacount.net/error-while/error-while-opening-qos-rsvp-service.html

RAM is utilized when jobs are increasingly being executed by diverse plans. Boot Into Harmless Manner: If your pc is blue-screening every time you turn it on, attempt booting into secure mode. A shadow copy couldn't be designed to the adhering to rationale. Give your disk drive some room by deleting these temporary data files including your net record and cookies.

So it is only useful to use two-pass encoding when the audio and video bitrate fields are set. basic features: (repairs system freezing and rebooting issues , start-up customization , browser helper object management , program removal management , live updates , windows structure repair.) Recommended Solution Links: (1) If this works, you'll know that it's likely a application dilemma. Hardware Upgrade Forum > Software > Editing e Codec video > Problema conversione video Total Video Converter!!!

Any errors from level 20 to 25 are serious in nature …… Windows Error Codes (MSDN, http://msdn.microsoft.com/en-us/library/cc231196(v=prot.10).aspx) 1 Contents 2.1 HRESULT …… … 0.000000, bitrate: 217 kb/s Stream #0.0(eng): Audio: mp4a Enable and reload.Sign inThe divx plus web player could not download the video hatasıShareThis version of Firefox is no longer supported. bunları mpeg formatına çevirmek istiyorum ancak total converter hata veriyor. (program standart 2,5 veriyonu tam sürümdür) hata msj : error while opening codec for output stream #0.0 - maybe incorrect parameters I am using flowplayer to play the video.

To unlock all features and tools, a purchase is required. K-lite kodec pack de yüklerseniz sanırım sorun düzelir.vefasız hedef kitle2012-11-09 17:39:36 OfflineErkekDediklerinizi yaptmıştım zaten ama3dinebandimOsman İbişDediklerinizi yaptmıştım zaten ama olmuyor.xilisoft video convertere yükledim.sorunsuz çalışıyor Yeşekkürler2012-11-09 17:48:01 OfflineErkekHerkse bir gün "xilisoft"ETezerErgin TEZERHerkes Forum TR > Bilgisayar > Video Sktrma > Total Video Converter hatas yardm !!! Please upgrade to a supported browser.DismissFileEditViewToolsHelpAccessibilityDebugSee new changesAccessibilityView onlyToggle screen reader support

The main difficulty is with the components of your respective technique not being compatible, or having difficulties; Error While Opening Codec For Output Stream Total Video Converter Hatasi as well as RAM is utilized when jobs are being executed by unique courses. Hatrlasn m? Scan your computer for malware to make sure buggy malicious application isn't causing it to crash.

bence bunun neeni codec bilesenlerinin eksikligi olabilir _____________________________ Sayfa: [1] Tüm Forumlar >> İşletim Sistemleri ve Yazılımlar >> Yazılım Genel >> Total video converter ile 3gp yi mpeg'e çevirme? Reklam Mailimiz. The progression of technology manufactured new pcs to obtain far better capabilities than old ones. I want to upload a MP4 and change it to FLV.

The corrupted system files entries can be a real threat to the well being of your computer. Sign in . "error while opening codec for output stream #0.0 - maybe incorrect parameters such as bit_rate, rat… … Download the top total video converter 3.14 error repair tool here:http://www.fixerrorfast.com/ttfix-total_… Tatil Ana Sayfa Copyright 2016 HomeSitemap Services Welcome Home » Software » Error While Opening Codec For Output Stream Total Video Converter Hatasi Error While Opening Codec For Output Stream Join the party Download & Extend Drupal Core Distributions Modules Themes VideoIssues Error while opening encoder for output stream #0.0 - maybe incorrect parameters such as bit_rate, rate, width or height

If your pc continues to blue display after this, you likely possess a hardware dilemma. If this works, you'll know that it's likely a application problem. It has been solved, see my previous message. December 9, 2014 Audio & Video admin. … Win32 error codes Description 0x00000000 ERROR_SUCCESS.

About Us Contact us Privacy Policy Terms of use Skip to main content Skip to search Main Menu Drupal.org home Download & Extend Community Documentation Support Jobs Marketplace About Return to A reboot may be needed. Output #0, flv, to '/tmp/1347827465-505637095e47c.flv': Stream #0.0: Video: flv, yuv420p, 640x360, q=2-31, pass 2, 200 kb/s, 90k tbn, 25 tbc Stream #0.1: Audio: libfaac, 22050 Hz, stereo, s16, 64 kb/s Stream

Here is my log: Reported errors PHPVideoToolkit error: Execute error.

The Error While Opening Codec For Output Stream Total Video Converter Hatasi error is the Hexadecimal format of the error caused. Attempt testing your computer's memory for errors and checking its temperature to be certain that it isn't overheating. Quite possibly the most important Blue Display screen of Demise troubleshooting stage you can take is always to ask yourself what you just did. Squall_9015-01-2010, 20:55E' un file .avi!!!

Error While Opening Codec For Output Stream Total Video Converter Hatasi 4 out of 5 based on 38 ratings. There are two (2) ways to fix Error While Opening Codec For Output Stream Total Video Converter Hatasi Error: Advanced Computer User Solution (manual update): 1) Start your computer and Non-default components configurations have been known to cause a Blue Monitor of Death. ffmpeg - Error while opening encoder for output stream #0.0 … – Tour Start here for a quick overview of the site Help Center Detailed answers to any questions you might

It was not possible to encode "/home/stage.dealfisch.dev/public_html/sites/default/files/user/1/video/video_test.flv" as FFmpeg returned an error. Compatibility: Windows 7, 8, Vista, XP Download Size: 6MB Requirements: 300 MHz Processor, 256 MB Ram, 22 MB HDD Limitations: This download is a free evaluation version. Error While Opening Codec For Output Stream Total Video Converter Hatasi. This code is used by the vendor to identify the error caused.

In quale formato vorresti convertire il tuo file? These problems can be a result of both hardware and software concerns, and it can be difficult to troubleshoot the issue. The following tools can help you uninstall or roll back application changes, mend Home windows startup files, and restore your procedure from an earlier backup. Sayfaya Git: GitSayfa: 1 Hızlı Cevap Mesaj Daha Çok GülücükÖzelleştir Font SeçimiFont SeçimiTimes New RomanArialVerdanaTahomaCourier NewTrebuchet MSMicrosoft Sans Serif Font BoyutuBoyut=1Boyut=2 Video linklerini buraya toplu yapıştırın: Taslak Kaydedildi. 15

vBulletin v3.6.4, Copyright ©2000-2016, Jelsoft Enterprises Ltd. Simply click Suggested restore, and afterwards click Following. Consider testing your computer's memory for faults and checking its temperature to be certain that it isn't overheating.




© Copyright 2017 mediacount.net. All rights reserved.